Unconfigured Ad Widget

Collapse

Announcement

Collapse
No announcement yet.

[Review] PIPO P1 RK3288 MALI-T764 RETINA IPS SCREEN ANDROID 4.4 2G+32G

Collapse
X
 
  • Filter
  • Time
  • Show
Clear All
new posts

    [Review] PIPO P1 RK3288 MALI-T764 RETINA IPS SCREEN ANDROID 4.4 2G+32G

    INTRODUCTION

    In CES2014 held in LasVegas, Rockchip had announced the newest Quad Core chip—RK3288. After a long time waiting, fortunately, I got Pipo P1. Now, I am happy to share user experience with you guys.
    These accessories are included in the package: a tablet, a power adapter, a Micro-HDMI cable, a Micro-USB cable, an earphone.



    HARDWARE

    First, let’s have a good look at the specs:

    Dimensions: 243*187.2*11.2mm
    Weight: 649g
    Screen size: 9.7 inch
    Screen resolution: 2048*1536 (Retina IPS )
    Battery:10000mAh
    Internal storage:32GB eMMC NAND
    External storage:32GB(max)
    Camera: Front 2M, back 8M auto focus, flashlight
    CPU: Rockchip 3288 Cortex A17,1.6GHz, Quad-core CPU
    GPU: ARM Mali-T764
    RAM: 2GB LPDDR3
    Operating system: Android 4.4.2
    Others: 4K and H.265HEVC, Built-in GPS receiver, G-sensor, Gyro sensor, E-compass, mini HDMI output,
    Well, it does come with solid hardware. I will test them later.
    At first glance, the tablet is not attractive—all black hood, wide bezels, all- glass front with metal wiredrawing’s rear cover.



    The top of the tablet is very busy: headphone jack, MIC, Charging interface, Micro-USB port, mini HDMI port, TF card port and power button are residing on the top. Volume rocker and ESC button (a little surprise) are just on the left.



    The front camera sits in the top left camera, while the rear camera (with a flashlight) is in the top right corner. And the speaker resides in the top right corner in the front.

    In my daily use, the ESC button gives me a surprise—a convenient button when exiting apps. But I feel tired when I hold the device in one-hand for long time, and the 649g weight is not satisfied.
    RK3288&MALI-T764

    RK3288 and Mali-T764 are the selling points of P1. RK3288 adopt 28 NANO technology, used the Quad Core Cortex A17 and Mali T764, the CPU frequency reaches 1.8 GHz.

    One of the biggest advantages of RK3288 from architecture is that the A17 use the same out-of-orderexecution with double instruction decofer, double AGU and multi issue as the A15 does, but the A17 has a great promotion in instruction execution. To keep the same power dissipation, the performance of single thread for A17 improved 40% than those of A9.




    Mali T764 uses the third generation of Midgrads,which is redesigned in the internal architecture, especially the great change for the configuration of shader . For example, the number of the sharder for Mali T764 is 8, which is double of T654. Its performance reaches 82GFLOPS, 2400M pixels, which has improves 4 times of Mali T604 and 5 times of Mali-400MP4. Shortly, it is one of the fastest movable GPU.




    Well, the benchmarks seem more authority:

    Antutu






    All the scores seem amazing. Well, the practice is more important.

    VIDEO

    Taking advantage of RK3288’s video decoding capability, P1 supports most video format.
    Here is Antutu Video test.




    Considering Mali T764 supports 4K*2K video playing, I played two videos on it:

    Crysis 2 trailer, 1080p, flv



    4K-Chimei-inn-60mbps



    Surprise! Even the 4K video can be played smoothly on the table. This is the first tablet I’ve seen that can play 4Kvideo, it must benefit from the RK3288.

    GAME

    To achieve the full potential of the device, I tested two big games—call of duty.





    Along with the gorgeous screen, the FPS game runs smoothly, what’s more, the smog and water wave can be seen clearly. Then I test Asphalt8, NBA 2K14, both work well on the device.

    DISPLAY


    P1 comes with a retina IPS display, with a resolution of 2048*1536. To be more accurate, I use the APP–display tester– to test the screen.

    Let’s see the visual effects:




    Colors are vivid and saturated.




    I can see the words from sharp angels.




    Colors are natural.
    CAMERA

    I take a still of sky.



    Um, the blue color seems without partial.

    When shooting in macro, the picture is fine.

    PROS Cons
    Solid CPU and GPU a little heavy
    Support 4K video press too hard
    Gorgeous screen

    Pipo P1 is available in GeekBuying.
    Coupons Updated Every Day: https://bit.ly/2RnbHUi

    Deals for TV Boxes & Mini PC: https://bit.ly/2s7ugxD

    #2
    Hi

    Van youvtest some h265 videos?

    Comment


      #3
      Originally posted by gaetanolip View Post
      Hi

      Van youvtest some h265 videos?
      Hi,
      Thanks for your advice, maybe we will add this test of the product review in the future.
      Coupons Updated Every Day: https://bit.ly/2RnbHUi

      Deals for TV Boxes & Mini PC: https://bit.ly/2s7ugxD

      Comment


        #4
        Originally posted by GeekBuying_Rep View Post
        Hi,
        Thanks for your advice, maybe we will add this test of the product review in the future.
        may i link to you any h265 sample videos to test?

        Comment


          #5
          Originally posted by gaetanolip View Post
          may i link to you any h265 sample videos to test?
          Ok, we will try it for you. Just send the link to us.
          Coupons Updated Every Day: https://bit.ly/2RnbHUi

          Deals for TV Boxes & Mini PC: https://bit.ly/2s7ugxD

          Comment


            #6
            video h265 for testing :

            http://shared.com/mqognh9v8x


            4k
            Complete name : C:\Users\Marchand\Videos\Teste HD HEVC.mkv
            Format : Matroska
            Format version : Version 4 / Version 2
            File size : 20.6 MiB
            Duration : 2mn 9s
            Overall bit rate : 1 335 Kbps
            Encoded date : UTC 2013-10-20 01:36:53
            Writing application : mkvmerge v6.2.0 ('Promised Land Rovi v1.0.4') built on Aug 29 2013 13:59:38
            Writing library : libebml v1.3.0 + libmatroska v1.4.0
            Encoding Gui : Hybrid 2013.09.17.1

            Video
            ID : 1
            Format : V_MPEGH/ISO/HEVC
            Codec ID : V_MPEGH/ISO/HEVC
            Duration : 2mn 9s
            Bit rate : 1 308 Kbps
            Width : 3 840 pixels
            Height : 2 160 pixels
            Display aspect ratio : 16:9
            Frame rate mode : Constant
            Frame rate : 30.000 fps
            Bits/(Pixel*Frame) : 0.005
            Stream size : 20.2 MiB (98%)
            Default : Yes
            Forced : Yes

            ---------------------------------

            1080p

            http://shared.com/nrqjngjbup


            ------------------


            http://www.elecard.com/en/download/videos.html

            especially "Big Buck Bunny" 1080p hevc

            thanhs!!

            Comment


              #7
              Originally posted by gaetanolip View Post
              video h265 for testing :

              http://shared.com/mqognh9v8x


              4k
              Complete name : C:\Users\Marchand\Videos\Teste HD HEVC.mkv
              Format : Matroska
              Format version : Version 4 / Version 2
              File size : 20.6 MiB
              Duration : 2mn 9s
              Overall bit rate : 1 335 Kbps
              Encoded date : UTC 2013-10-20 01:36:53
              Writing application : mkvmerge v6.2.0 ('Promised Land Rovi v1.0.4') built on Aug 29 2013 13:59:38
              Writing library : libebml v1.3.0 + libmatroska v1.4.0
              Encoding Gui : Hybrid 2013.09.17.1

              Video
              ID : 1
              Format : V_MPEGH/ISO/HEVC
              Codec ID : V_MPEGH/ISO/HEVC
              Duration : 2mn 9s
              Bit rate : 1 308 Kbps
              Width : 3 840 pixels
              Height : 2 160 pixels
              Display aspect ratio : 16:9
              Frame rate mode : Constant
              Frame rate : 30.000 fps
              Bits/(Pixel*Frame) : 0.005
              Stream size : 20.2 MiB (98%)
              Default : Yes
              Forced : Yes

              ---------------------------------

              1080p

              http://shared.com/nrqjngjbup


              ------------------


              http://www.elecard.com/en/download/videos.html

              especially "Big Buck Bunny" 1080p hevc

              thanhs!!

              Ok, we will test it and let you know when we finished it.
              Coupons Updated Every Day: https://bit.ly/2RnbHUi

              Deals for TV Boxes & Mini PC: https://bit.ly/2s7ugxD

              Comment

              Working...
              X